2017欧美奇幻《宝贝老板》[3D左右]3D.BluRay.Half-SBS.x264 [复制链接]

APP看帖

扫一扫!手机看帖更爽

993
7
本帖最后由 酷开2606 于 2017-9-16 11:09 编辑

50948252a91823d786ffe81f8f0e7f22.jpg

◎译  名 宝贝老板/娃娃老板/波士BB(港)
◎片  名 The Boss Baby
◎年  代 2017
◎产  地 美国
◎类  别 喜剧/动画
◎语  言 英语
◎上映日期 2017-03-12(迈阿密电影节)/2017-03-31(美国)
◎IMDb评分  6.4/10 from 35,531 users
◎IMDb链接  http://www.imdb.com/title/tt3874544/
◎豆瓣评分 7.3/10 from 12,091 users
◎豆瓣链接 https://movie.douban.com/subject/25907029/
◎BT之家整理 http://www.btbtt.pw
◎片  长 97分钟
◎导  演 汤姆·麦格拉思 Tom McGrath
◎主  演 亚历克·鲍德温 Alec Baldwin
      迈尔斯·克里斯托弗·巴克什 Miles Christopher Bakshi
      吉米·坎摩尔 Jimmy Kimmel
      丽莎·库卓 Lisa Kudrow
      史蒂夫·布西密 Steve Buscemi
      托比·马奎尔 Tobey Maguire
      詹姆斯·麦格拉思 James McGrath
      康拉德·弗农 Conrad Vernon
      薇薇安·叶 ViviAnn Yee
      埃里克·贝尔·Jr. Eric Bell Jr.
      大卫·索伦 David Soren
      伊迪·米尔曼 Edie Mirman
      詹姆斯·雷恩 James Ryan
      沃尔特·道恩 Walt Dohrn
      朱尔斯·温特 Jules Winter

◎简  介

  孩子到底是从哪里来的呢?不同于人们以往的认知,小Baby们竟然是批量生产的?!《娃娃老板》的主角小男孩Timothy本来是爸爸妈妈心中唯一的宝贝,可在一个穿着西装提着公文包的小婴儿的突然出现之后,他一下子就失宠了,爸爸妈妈的心思全都在弟弟身上,让他很是不爽。
  不过更让他 震惊的是,这个弟弟不仅穿得像个老板,还是个来自Baby公司肩负重任心思缜密的优秀员工?!为了赶紧摆脱这个小Baby,让爸爸妈妈重新回到自己的身边,Timothy必须和『弟弟』联手阻止Puppy公司颠覆世界的阴谋......

Video
ID                                       : 1
Format                                   : AVC
Format/Info                              : Advanced Video Codec
Format profile                           : High@L4.1
Format settings, CABAC                   : Yes
Format settings, ReFrames                : 2 frames
Codec ID                                 : V_MPEG4/ISO/AVC
Duration                                 : 1 h 37 min
Nominal bit rate                         : 15.5 Mb/s
Width                                    : 1 920 pixels
Height                                   : 1 080 pixels
Display aspect ratio                     : 16:9
Frame rate mode                          : Constant
Frame rate                               : 23.976 (24000/1001) FPS
Color space                              : YUV
Chroma subsampling                       : 4:2:0
Bit depth                                : 8 bits
Scan type                                : Progressive
Bits/(Pixel*Frame)                       : 0.312
Title                                    : The.Boss.Baby.2017.1080p.3D.BluRay.Half-SBS.x264.DTS-HD.MA.7.1-FGT
Writing library                          : x264 core 142
Encoding settings                        : cabac=1 / ref=1 / deblock=1:-1:-1 / analyse=0x3:0 / me=hex / subme=5 / psy=0 / mixed_ref=0 / me_range=16 / chroma_me=1 / trellis=0 / 8x8dct=1 / cqm=0 / deadzone=21,11 / fast_pskip=0 / chroma_qp_offset=0 / threads=8 / lookahead_threads=2 / sliced_threads=0 / nr=0 / decimate=1 / interlaced=0 / bluray_compat=0 / constrained_intra=0 / bframes=2 / b_pyramid=0 / b_adapt=1 / b_bias=0 / direct=1 / weightb=0 / open_gop=0 / weightp=0 / keyint=24 / keyint_min=13 / scenecut=40 / intra_refresh=0 / rc=abr / mbtree=0 / bitrate=15500 / ratetol=1.0 / qcomp=0.60 / qpmin=0 / qpmax=69 / qpstep=4 / ip_ratio=1.40 / pb_ratio=1.30 / aq=1:1.00
Default                                  : Yes
Forced                                   : No
Color range                              : Limited
Color primaries                          : BT.709
Transfer characteristics                 : BT.709
Matrix coefficients                      : BT.709

Audio #1
ID                                       : 2
Format                                   : DTS
Format/Info                              : Digital Theater Systems
Format profile                           : MA / ES Matrix / Core
Mode                                     : 16
Format settings, Endianness              : Big
Codec ID                                 : A_DTS
Duration                                 : 1 h 37 min
Bit rate mode                            : Variable / Constant / Constant
Bit rate                                 : Unknown / 1 509 kb/s / 1 509 kb/s
Channel(s)                               : 8 channels / 7 channels / 6 channels
Channel positions                        : Front: L C R, Side: L R, Back: L R, LFE / Front: L C R, Side: L R, Back: C, LFE / Front: L C R, Side: L R, LFE
Sampling rate                            : 48.0 kHz
Frame rate                               : 93.750 FPS (512 spf)
Bit depth                                : 24 bits
Compression mode                         : Lossless / Lossy / Lossy
Title                                    : The.Boss.Baby.2017.1080p.3D.BluRay.Half-SBS.x264.DTS-HD.MA.7.1-FGT
Language                                 : English
Default                                  : Yes
Forced                                   : No

Audio #2
ID                                       : 3
Format                                   : DTS
Format/Info                              : Digital Theater Systems
Format profile                           : ES Matrix / Core
Mode                                     : 16
Format settings, Endianness              : Big
Codec ID                                 : A_DTS
Duration                                 : 1 h 37 min
Bit rate mode                            : Constant
Bit rate                                 : 1 509 kb/s
Channel(s)                               : 7 channels / 6 channels
Channel positions                        : Front: L C R, Side: L R, Back: C, LFE / Front: L C R, Side: L R, LFE
Sampling rate                            : 48.0 kHz
Frame rate                               : 93.750 FPS (512 spf)
Bit depth                                : 24 bits
Compression mode                         : Lossy
Stream size                              : 1.03 GiB (6%)
Title                                    : The.Boss.Baby.2017.1080p.3D.BluRay.Half-SBS.x264.DTS-HD.MA.7.1-FGT
Language                                 : English
Default                                  : No
Forced                                   : No

Audio #3
ID                                       : 4
Format                                   : DTS
Format/Info                              : Digital Theater Systems
Mode                                     : 16
Format settings, Endianness              : Big
Codec ID                                 : A_DTS
Duration                                 : 1 h 37 min
Bit rate mode                            : Constant
Bit rate                                 : 768 kb/s
Channel(s)                               : 6 channels
Channel positions                        : Front: L C R, Side: L R, LFE
Sampling rate                            : 48.0 kHz
Frame rate                               : 93.750 FPS (512 spf)
Bit depth                                : 24 bits
Compression mode                         : Lossy
Stream size                              : 536 MiB (3%)
Title                                    : The.Boss.Baby.2017.1080p.3D.BluRay.Half-SBS.x264.DTS-HD.MA.7.1-FGT
Language                                 : Spanish
Default                                  : No
Forced                                   : No

Audio #4
ID                                       : 5
Format                                   : DTS
Format/Info                              : Digital Theater Systems
Mode                                     : 16
Format settings, Endianness              : Big
Codec ID                                 : A_DTS
Duration                                 : 1 h 37 min
Bit rate mode                            : Constant
Bit rate                                 : 768 kb/s
Channel(s)                               : 6 channels
Channel positions                        : Front: L C R, Side: L R, LFE
Sampling rate                            : 48.0 kHz
Frame rate                               : 93.750 FPS (512 spf)
Bit depth                                : 24 bits
Compression mode                         : Lossy
Stream size                              : 536 MiB (3%)
Title                                    : The.Boss.Baby.2017.1080p.3D.BluRay.Half-SBS.x264.DTS-HD.MA.7.1-FGT
Language                                 : Catalan
Default                                  : No
Forced                                   : No

Audio #5
ID                                       : 6
Format                                   : AC-3
Format/Info                              : Audio Coding 3
Format settings, Endianness              : Big
Codec ID                                 : A_AC3
Duration                                 : 1 h 37 min
Bit rate mode                            : Constant
Bit rate                                 : 448 kb/s
Channel(s)                               : 6 channels
Channel positions                        : Front: L C R, Side: L R, LFE
Sampling rate                            : 48.0 kHz
Frame rate                               : 31.250 FPS (1536 spf)
Bit depth                                : 16 bits
Compression mode                         : Lossy
Stream size                              : 312 MiB (2%)
Title                                    : The.Boss.Baby.2017.1080p.3D.BluRay.Half-SBS.x264.DTS-HD.MA.7.1-FGT
Language                                 : Chinese
Service kind                             : Complete Main
Default                                  : No
Forced                                   : No

Audio #6
ID                                       : 7
Format                                   : AC-3
Format/Info                              : Audio Coding 3
Format settings, Endianness              : Big
Codec ID                                 : A_AC3
Duration                                 : 1 h 37 min
Bit rate mode                            : Constant
Bit rate                                 : 448 kb/s
Channel(s)                               : 6 channels
Channel positions                        : Front: L C R, Side: L R, LFE
Sampling rate                            : 48.0 kHz
Frame rate                               : 31.250 FPS (1536 spf)
Bit depth                                : 16 bits
Compression mode                         : Lossy
Stream size                              : 312 MiB (2%)
Title                                    : The.Boss.Baby.2017.1080p.3D.BluRay.Half-SBS.x264.DTS-HD.MA.7.1-FGT
Language                                 : Chinese
Service kind                             : Complete Main
Default                                  : No
Forced                                   : No

Audio #7
ID                                       : 8
Format                                   : AC-3
Format/Info                              : Audio Coding 3
Format settings, Endianness              : Big
Codec ID                                 : A_AC3
Duration                                 : 1 h 37 min
Bit rate mode                            : Constant
Bit rate                                 : 448 kb/s
Channel(s)                               : 6 channels
Channel positions                        : Front: L C R, Side: L R, LFE
Sampling rate                            : 48.0 kHz
Frame rate                               : 31.250 FPS (1536 spf)
Bit depth                                : 16 bits
Compression mode                         : Lossy
Stream size                              : 312 MiB (2%)
Title                                    : The.Boss.Baby.2017.1080p.3D.BluRay.Half-SBS.x264.DTS-HD.MA.7.1-FGT
Language                                 : Thai
Service kind                             : Complete Main
Default                                  : No
Forced                                   : No

Audio #8
ID                                       : 9
Format                                   : AC-3
Format/Info                              : Audio Coding 3
Format settings, Endianness              : Big
Codec ID                                 : A_AC3
Duration                                 : 1 h 37 min
Bit rate mode                            : Constant
Bit rate                                 : 448 kb/s
Channel(s)                               : 6 channels
Channel positions                        : Front: L C R, Side: L R, LFE
Sampling rate                            : 48.0 kHz
Frame rate                               : 31.250 FPS (1536 spf)
Bit depth                                : 16 bits
Compression mode                         : Lossy
Stream size                              : 312 MiB (2%)
Title                                    : The.Boss.Baby.2017.1080p.3D.BluRay.Half-SBS.x264.DTS-HD.MA.7.1-FGT
Language                                 : Vietnamese
Service kind                             : Complete Main
Default                                  : No
Forced                                   : No

Text #1
ID                                       : 10
Format                                   : PGS
Muxing mode                              : zlib
Codec ID                                 : S_HDMV/PGS
Codec ID/Info                            : Picture based subtitle format used on BDs/HD-DVDs
Title                                    : English-PGS
Language                                 : English
Default                                  : Yes
Forced                                   : No

Text #2
ID                                       : 11
Format                                   : PGS
Muxing mode                              : zlib
Codec ID                                 : S_HDMV/PGS
Codec ID/Info                            : Picture based subtitle format used on BDs/HD-DVDs
Title                                    : English-FORCED-PGS
Language                                 : English
Default                                  : No
Forced                                   : No

Text #3
ID                                       : 12
Format                                   : PGS
Muxing mode                              : zlib
Codec ID                                 : S_HDMV/PGS
Codec ID/Info                            : Picture based subtitle format used on BDs/HD-DVDs
Title                                    : SPanish-PGS
Language                                 : Spanish
Default                                  : No
Forced                                   : No

Text #4
ID                                       : 13
Format                                   : PGS
Muxing mode                              : zlib
Codec ID                                 : S_HDMV/PGS
Codec ID/Info                            : Picture based subtitle format used on BDs/HD-DVDs
Title                                    : Chinese-PGS
Language                                 : Chinese
Default                                  : No
Forced                                   : No

Text #5
ID                                       : 14
Format                                   : PGS
Muxing mode                              : zlib
Codec ID                                 : S_HDMV/PGS
Codec ID/Info                            : Picture based subtitle format used on BDs/HD-DVDs
Title                                    : Indonesian-PGS
Language                                 : Indonesian
Default                                  : No
Forced                                   : No

Text #6
ID                                       : 15
Format                                   : PGS
Muxing mode                              : zlib
Codec ID                                 : S_HDMV/PGS
Codec ID/Info                            : Picture based subtitle format used on BDs/HD-DVDs
Title                                    : Malay-PGS
Language                                 : Malay
Default                                  : No
Forced                                   : No

Text #7
ID                                       : 16
Format                                   : PGS
Muxing mode                              : zlib
Codec ID                                 : S_HDMV/PGS
Codec ID/Info                            : Picture based subtitle format used on BDs/HD-DVDs
Title                                    : Chinese-PGS
Language                                 : Chinese
Default                                  : No
Forced                                   : No

Text #8
ID                                       : 17
Format                                   : PGS
Muxing mode                              : zlib
Codec ID                                 : S_HDMV/PGS
Codec ID/Info                            : Picture based subtitle format used on BDs/HD-DVDs
Title                                    : Thai-PGS
Language                                 : Thai
Default                                  : No
Forced                                   : No

Text #9
ID                                       : 18
Format                                   : PGS
Muxing mode                              : zlib
Codec ID                                 : S_HDMV/PGS
Codec ID/Info                            : Picture based subtitle format used on BDs/HD-DVDs
Title                                    : Vietnamese-PGS
Language                                 : Vietnamese
Default                                  : No
Forced                                   : No

Menu
00:00:00.000                             : en01)00:00:00:000
00:03:45.892                             : en02)00:03:45:892
00:08:58.287                             : en03)00:08:58:287
00:11:45.913                             : en04)00:11:45:913
00:14:59.565                             : en05)00:14:59:565
00:19:38.218                             : en06)00:19:38:218
00:22:52.788                             : en07)00:22:52:788
00:28:27.247                             : en000:28:27:247
00:30:26.115                             : en09)00:30:26:115
00:33:45.481                             : en10)00:33:45:481
00:36:57.256                             : en11)00:36:57:256
00:39:18.356                             : en12)00:39:18:356
00:42:35.344                             : en13)00:42:35:344
00:46:20.611                             : en14)00:46:20:611
00:51:37.719                             : en15)00:51:37:719
00:53:25.285                             : en16)00:53:25:285
00:56:28.718                             : en17)00:56:28:718
00:59:35.405                             : en100:59:35:405
01:04:03.172                             : en19)01:04:03:172
01:08:15.758                             : en20)01:08:15:758
01:11:29.910                             : en21)01:11:29:910
01:16:25.247                             : en22)01:16:25:247
01:23:10.110                             : en23)01:23:10:110
01:27:36.960                             : en24)01:27:36:960
01:37:30.594                             : en25)01:37:30:594


2be419e728db0c645beafda8312dee52.jpg 29f69799f29c4867ae34db63e06d5531.jpg 6830bcaa34efb2125e28c407bcf4b823.jpg aa2bf310b2eb4fe91e62aef9d5070413.jpg bda9faea370a22c0d76abba2283fb334.jpg e1a942a945da42c9ac548f5c1de69a90.jpg




游客,如果您要查看本帖隐藏内容请回复


x
*
姓名:
*
手机:
*您的个人信息我们将严格保密,请放心填写
993
7
举报
酷_zfcy8st +好友发信息 LV2151
畅玩在酷开,大家一起嗨!
感谢楼主的分享

2017-9-16 11:21     只看该作者 举报

Vict0r +好友发信息 LV93413

在线王 •••

畅玩在酷开,大家一起嗨!
赶紧摆脱这个小Baby

2017-9-16 12:29     只看该作者 举报

nanbei +好友发信息 LV8724

在线王 •••

畅玩在酷开,大家一起嗨!
谢谢分享

2017-9-28 20:51     只看该作者 举报

nanbei +好友发信息 LV8724

在线王 •••

畅玩在酷开,大家一起嗨!
谢谢分享

2017-10-12 21:25     只看该作者 举报

酷_97ayc7k +好友发信息 LV110
畅玩在酷开,大家一起嗨!
怎么看?电视上能放出3D

2017-10-12 22:08     只看该作者 举报

刘经理 +好友发信息 LV禁止发言615

由心开始在线王 •••

畅玩在酷开,大家一起嗨!
提示: 作者被禁止或删除 内容自动屏蔽
nanbei +好友发信息 LV8724

在线王 •••

畅玩在酷开,大家一起嗨!
谢谢分享

2017-10-23 20:58     只看该作者 举报

您需要登录后才可以回帖 登录

本版积分规则

创意玩法更多玩法>
玩家测评加入测评>
  • 金币怎么获得?
酷开系统ROM
本周明星用户
  • 摩旅者
    文艺达人
    摩旅者

    生活中的美好需要一双发现美的眼睛,也需要一颗文艺的心

  • learntv
    科技迷
    learntv

    最爱关注科技动态!与时俱进

  • -shine-
    活动之星
    -shine-

    跟我一起参加酷开的各种活动吧!好玩礼品多!

  • 社区微博
  • 官方微信
  • 金币怎么获得?
惠玩才酷,火力全开

加入酷开

酷开,为家庭互联网而生

川网文[2011]0579-016号 Copyright 2006- coocaa.com All Rights Reserved

ICP备案证书号: 蜀ICP备12016430号  许可证号码:川B2-20120050-3

发表主题分享 回复 官方微信 在线客服